Homes Under The Hammer S19E29 720p HDTV x264-NORiTE [eztv] | BitLord.com | Cincuenta sombras más oscuras
layout

Football Focus - 17th October 2015 - hdtv x264

Torrent ID# 0D3974485EFC17DD92CB51C1F0CF88F275DC7275
NA
Added 2015-10-17 14:35:50   
Size 241.38 MiB in 2 files
Share
Seeders & Leechers 1/1
Category Video > TV shows
Football Focus - 17th October 2015 - hdtv x264
Description
SPORT: Football Focus
On: BBC 1 HD     
Date: Saturday 17th October 2015
Time: 12:10 to 12:50 

Dan Walker and guests discuss the latest talking points as the Premier League resumes following the conclusion of the Euro 2016 qualifying groups. In the Premier League, defending champions Chelsea continue their attempt to recover from a poor start to the season when they host Aston Villa, while title rivals Manchester City welcome Bournemouth, and Manchester United - and captain Wayne Rooney - return to Goodison Park, where they lost 3-0 to Everton last season.

RIP Howard Kendall, sad loss. Thanks for the memories.


General
Complete name                            : Football.Focus-S15E11-2015.10.17-hdtv.x264.mp4
Format                                   : MPEG-4
Format profile                           : Base Media / Version 2
Codec ID                                 : mp42
File size                                : 241 MiB
Duration                                 : 39mn 3s
Overall bit rate mode                    : Variable
Overall bit rate                         : 864 Kbps

Video
ID                                       : 1
Format                                   : AVC
Format/Info                              : Advanced Video Codec
Format profile                           : [email protected]
Format settings, CABAC                   : Yes
Format settings, ReFrames                : 5 frames
Codec ID                                 : avc1
Codec ID/Info                            : Advanced Video Coding
Duration                                 : 39mn 3s
Bit rate                                 : 764 Kbps
Width                                    : 704 pixels
Height                                   : 400 pixels
Display aspect ratio                     : 16:9
Frame rate mode                          : Constant
Frame rate                               : 25.000 fps
Color space                              : YUV
Chroma subsampling                       : 4:2:0
Bit depth                                : 8 bits
Scan type                                : Progressive
Bits/(Pixel*Frame)                       : 0.108
Stream size                              : 213 MiB (88%)
Writing library                          : x264 core 130 r2273 b3065e6
Encoding settings                        : cabac=1 / ref=5 / deblock=1:0:0 / analyse=0x3:0x113 / me=umh / subme=8 / psy=1 / psy_rd=1.00:0.00 / mixed_ref=1 / me_range=16 / chroma_me=1 / trellis=1 / 8x8dct=1 / cqm=0 / deadzone=21,11 / fast_pskip=1 / chroma_qp_offset=-2 / threads=24 / lookahead_threads=3 / sliced_threads=0 / nr=0 / decimate=1 / interlaced=0 / bluray_compat=0 / constrained_intra=0 / bframes=3 / b_pyramid=2 / b_adapt=2 / b_bias=0 / direct=3 / weightb=1 / open_gop=0 / weightp=2 / keyint=250 / keyint_min=25 / scenecut=40 / intra_refresh=0 / rc_lookahead=50 / rc=crf / mbtree=1 / crf=22.0 / qcomp=0.60 / qpmin=0 / qpmax=69 / qpstep=4 / ip_ratio=1.40 / aq=1:1.00

Audio
ID                                       : 2
Format                                   : AAC
Format/Info                              : Advanced Audio Codec
Format profile                           : LC
Codec ID                                 : 40
Duration                                 : 39mn 3s
Bit rate mode                            : Variable
Bit rate                                 : 96.0 Kbps
Maximum bit rate                         : 207 Kbps
Channel(s)                               : 2 channels
Channel positions                        : Front: L R
Sampling rate                            : 48.0 KHz
Compression mode                         : Lossy
Stream size                              : 26.8 MiB (11%)
Title                                    : Stereo
Language                                 : English