Rock Band Country Track Pack (PS2 ) 2009 | [AnimeRG] Boku no Hero Academia S2 - 06 (My Hero Academia - 19) [720p] [Eng D... | The.Walking.Dead.S07E16.HDTV.x264-KILLERS[ettv]
layout

Wayward Pines S01E07 720p HDTV X264-DIMENSION

Torrent ID# 160601429F6B6AADEBCFF72BF65DA1B7F4F2FF37
NA
Added 2015-07-02 16:22:05   
Size 929.58 MiB in 3 files
Share
Seeders & Leechers 245/104
Category Video > HD - TV shows
Wayward Pines S01E07 720p HDTV X264-DIMENSION
Description
Video
ID                                       : 1
Format                                   : AVC
Format/Info                              : Advanced Video Codec
Format profile                           : [email protected]
Format settings, CABAC                   : Yes
Format settings, ReFrames                : 8 frames
Codec ID                                 : V_MPEG4/ISO/AVC
Duration                                 : 44mn 8s
Bit rate                                 : 2 367 Kbps
Width                                    : 1 280 pixels
Height                                   : 720 pixels
Display aspect ratio                     : 16:9
Frame rate mode                          : Constant
Frame rate                               : 23.976 fps
Color space                              : YUV
Chroma subsampling                       : 4:2:0
Bit depth                                : 8 bits
Scan type                                : Progressive
Bits/(Pixel*Frame)                       : 0.107
Stream size                              : 747 MiB (82%)
Writing library                          : x264 core 146 r2538 121396c

Language                                 : English
Default                                  : Yes
Forced                                   : No
Color range                              : Limited
Matrix coefficients                      : BT.709

Audio
ID                                       : 2
Format                                   : AC-3
Format/Info                              : Audio Coding 3
Mode extension                           : CM (complete main)
Format settings, Endianness              : Big
Codec ID                                 : A_AC3
Duration                                 : 44mn 8s
Bit rate mode                            : Constant
Bit rate                                 : 448 Kbps
Channel(s)                               : 6 channels
Channel positions                        : Front: L C R, Side: L R, LFE
Sampling rate                            : 48.0 KHz
Compression mode                         : Lossy
Stream size                              : 141 MiB (16%)
Default                                  : Yes
Forced                                   : No