Keeping Up with the Kardashians Season 10 | Komedia kryminalna | Als t maar beweegt
layout

Minions.2015.HD-TS.XVID.AC3.HQ.Hive-CM8

Torrent ID# 1C5BD66D6D491BCDEEEB38CCCEE656C0A0C7328A
NA
Added 2015-06-29 01:52:41   
Size 1.47 GiB in 3 files
Share
Seeders & Leechers 798/563
Category Video > Movies
Minions.2015.HD-TS.XVID.AC3.HQ.Hive-CM8
Description
General
Complete name                  : Minions.2015.HD-TS.XVID.AC3.HQ.Hive-CM8.avi
Format                         : AVI
Format/Info                    : Audio Video Interleave
File size                      : 1.29 GiB
Duration                       : 1h 23mn
Overall bit rate               : 2 206 Kbps

SCREENS: 
http://img.imgrevenue.com/img-559088b6ea3bb.html 
 
http://img.imgrevenue.com/img-559088b935bbe.html 
 
http://img.imgrevenue.com/img-559088bb82766.html 
 
http://img.imgrevenue.com/img-559088be0ae54.html 
 
http://img.imgrevenue.com/img-559088c0439f5.html 
 
http://img.imgrevenue.com/img-559088c2bb340.html 
 
http://img.imgrevenue.com/img-559088c4ed395.html 
 
http://img.imgrevenue.com/img-559088c7353bd.html 


Video

ID                             : 0
Format                         : MPEG-4 Visual
Format profile                 : Advanced [email protected]
Format settings, BVOP          : 2
Format settings, QPel          : Yes
Format settings, GMC           : No warppoints
Format settings, Matrix        : Default (H.263)
Muxing mode                    : Packed bitstream
Codec ID                       : XVID
Codec ID/Hint                  : XviD
Duration                       : 1h 23mn
Bit rate                       : 2 200 Kbps
Width                          : 680 pixels
Height                         : 336 pixels
Display aspect ratio           : 2.024
Frame rate                     : 29.970 fps
Color space                    : YUV
Chroma subsampling             : 4:2:0
Bit depth                      : 8 bits
Scan type                      : Progressive
Compression mode               : Lossy
Bits/(Pixel*Frame)             : 0.321
Stream size                    : 1.29 GiB (100%)
Writing library                : XviD 1.2.1 (UTC 2008-12-04)

Audio

ID                             : 1
Format                         : AC-3
Format/Info                    : Audio Coding 3
Mode extension                 : CM (complete main)
Format settings, Endianness    : Big
Codec ID                       : 2000
Duration                       : 1h 23mn
Bit rate mode                  : Constant
Bit rate                       : 256 Kbps
Channel(s)                     : 2 channels
Channel positions              : Front: L R
Sampling rate                  : 48.0 KHz
Bit depth                      : 16 bits
Compression mode               : Lossy
Stream size                    : 158 MiB (12%)
Alignment                      : Split accross interleaves
Interleave, duration           : 42 ms (1.00 video frame)
Interleave, preload duration   : 500 ms