reloj The Belko Experiment (2016) Full Movie Online Streaming sin descargar. | 원라인 ONE-LINE.2017 | Far Cry 2 (X-BOX360) 2008
layout

Minions.2015.HD-TS.READNFO.XVID.AC3-VAiN

Torrent ID# 1ECAD91C821BC2D881C03B9C8F5B050D4E5041D3
NA
Added 2015-06-30 10:16:35   
Size 1.39 GiB in 4 files
Share
Seeders & Leechers 180/457
Category Video > Movies
Minions.2015.HD-TS.READNFO.XVID.AC3-VAiN
Description
http://extraimago.com/image/sfq
 
http://www.imdb.com/title/tt2293640/


Minions Stuart, Kevin and Bob are recruited by Scarlet Overkill, a super-villain who, alongside her inventor husband Herb, hatches a plot to take over the world.

Directors: Kyle Balda, Pierre Coffin
Writer: Brian Lynch
Stars: Pierre Coffin, Sandra Bullock, Jon Hamm
Genres: Animation | Comedy | Family
Country: USA
Language: English


Basic Information
Format: AVI
Format/Info: Audio Video Interleave
File size: 1.37 GiB
Duration: 1h 23mn
Overall bit rate: 2 339 Kbps
Writing application: VirtualDubMod 1.5.10.2 (build

2540/release)
Writing library: VirtualDubMod build 2540/release

Video
ID: 0
Format: MPEG-4 Visual
Format profile: Advanced [email protected]
Format settings, BVOP: 2
Format settings, QPel: No
Format settings, GMC: No warppoints
Format settings, Matrix: Default (MPEG)
Muxing mode: Packed bitstream
Codec ID: XVID
Codec ID/Hint: XviD
Duration: 1h 23mn
Bit rate: 2 071 Kbps
Width: 680 pixels
Height: 336 pixels
Display aspect ratio: 2.024
Frame rate: 29.970 fps
Color space: YUV
Chroma subsampling: 4:2:0
Bit depth: 8 bits
Scan type: Progressive
Compression mode: Lossy
Bits/(Pixel*Frame): 0.302
Stream size: 1.21 GiB (89%)
Writing library: XviD 66

Audio
ID: 1
Format: AC-3
Format/Info: Audio Coding 3
Mode extension: CM (complete main)
Format settings, Endianness: Big
Codec ID: 2000
Duration: 1h 23mn
Bit rate mode: Constant
Bit rate: 256 Kbps
Channel(s): 2 channels
Channel positions: Front: L R
Sampling rate: 48.0 KHz
Bit depth: 16 bits
Compression mode: Lossy
Stream size: 154 MiB (11%)
Alignment: Split accross interleaves
Interleave, duration: 33 ms (1.00 video frame)
Interleave, preload duration: 500 ms

E N C O D E R S . N O T E S

SOURCE: ViDEO...EVE, HiVE CM8 HD Video: AUDiO...HiVE-CM8 release
SAMPLE: Yippers
ADDED NOTE: well had both cams handy. not alota time so started to work. BOOM!!!

Then it's dropped and all the work dun by EVE & Hive. so grabbed Hive's flipped

through and thought, has too much red in it for me liking so decided to work on

this (as all the work been done already) adjusted rgb, lvls, sharp, noise, gain and

a few other tidbits

*READNFO* begin audio is pretty loud and abbresive but damn gud with that

exception. Cheers to Hive for the lipsync and S4NDM4N for the cap... also in via

the screens you can see 2 screen caps the show the difference in vids used. still

pretty damn nice copy... cheers to all involved

 
http://extraimago.com/image/sfy 
http://extraimago.com/image/sfL 
http://extraimago.com/image/sfQ 
http://extraimago.com/image/sfR 
http://extraimago.com/image/sfm 
http://extraimago.com/image/sfi 
http://extraimago.com/image/sfl 
http://extraimago.com/image/sfI