The Keeping Room (2014) | The Greasy Strangler 2016 | Invasion America
layout

Minions.2015.NEW.TS.XviD.AC3-The Muffin Stuffers

Torrent ID# 20A5C2623ADDA721DB8955B387EF09658F0902C4
NA
Added 2015-07-12 23:22:30   
Size 929.11 MiB in 3 files
Share
Category Porn > Movies
Minions.2015.NEW.TS.XviD.AC3-The Muffin Stuffers
Description
Minions.2015.NEW.TS.XviD.AC3-The Muffin Stuffers

Poster: http://i.imgur.com/j4MdWoR.jpg

SOURCE: NEW HDTS-MRG http://www.imdb.com/title/tt2293640/
FIXED THE PERSPECTIVE ISSUE NOTHING ELSE 

Screens:  
http://s27.postimg.org/i0g7nzo6b/vlcsnap_2015_07_12_22h02m53s045.jpg 
http://s27.postimg.org/x0d5pkug3/vlcsnap_2015_07_12_22h03m39s706.jpg 
http://s27.postimg.org/wspit2jhf/vlcsnap_2015_07_12_22h06m58s021.jpg 
http://s27.postimg.org/fe5aksmcj/vlcsnap_2015_07_12_22h07m43s298.jpg

General
Complete name: Minions.2015.NEW.TS.XviD.AC3-The Muffin Stuffers.avi
Format: AVI
Format/Info: Audio Video Interleave
File size: 908 MiB
Duration: 1h 23mn
Overall bit rate: 1 512 Kbps

Video
ID: 0
Format: MPEG-4 Visual
Format profile: Advanced [email protected]
Format settings, BVOP: 2
Format settings, QPel: No
Format settings, GMC: No warppoints
Format settings, Matrix: Default (H.263)
Muxing mode: Packed bitstream
Codec ID: XVID
Codec ID/Hint: XviD
Duration: 1h 23mn
Bit rate: 1 249 Kbps
Width: 640 pixels
Height: 304 pixels
Display aspect ratio: 2.105
Frame rate: 25.000 fps
Color space: YUV
Chroma subsampling: 4:2:0
Bit depth: 8 bits
Scan type: Progressive
Compression mode: Lossy
Bits/(Pixel*Frame): 0.257
Stream size: 750 MiB (83%)
Writing library: XviD 64

Audio
ID: 1
Format: AC-3
Format/Info: Audio Coding 3
Mode extension: CM (complete main)
Format settings, Endianness: Big
Codec ID: 2000
Duration: 1h 23mn
Bit rate mode: Constant
Bit rate: 256 Kbps
Channel(s): 2 channels
Channel positions: Front: L R
Sampling rate: 48.0 KHz
Compression mode: Lossy
Stream size: 154 MiB (17%)
Alignment: Aligned on interleaves
Interleave, duration: 64 ms (1.60 video frames)
Interleave, preload duration: 192 ms
Title: track_1