DVD Cover - 1968 10 23 Paris France (HughGotIt) | Full Movie 2 | Free Episode Download
layout

Kingsman The Secret Service 2015 CAM XviD AC3 MURD3R

Torrent ID# 34049EA588754DEAE97E91678DB0549F8349429F
NA
Added 2015-02-19 01:21:04   
Size 1.47 GiB in 7 files
Share
Seeders & Leechers 6316/4242
Category Video > Movies
Kingsman The Secret Service 2015 CAM XviD AC3 MURD3R
Description
Kingsman The Secret Service 2015 CAM XviD AC3 MURD3R.avi

Format : AVI
Format/Info : Audio Video Interleave
File size : 1.47 GiB
Duration : 1h 50mn
Overall bit rate : 1 908 Kbps

Video
ID : 0
Format : xvid
Codec ID : xvid
Duration : 1h 50mn
Bit rate : 1 800 Kbps
Width : 720 pixels
Height : 332 pixels
Display aspect ratio : 2.2:1
Frame rate : 29.970 fps
Bits/(Pixel*Frame) : 0.251
Stream size : 1.39 GiB (94%)

Audio
ID : 1
Format : AC-3
Format/Info : Audio Coding 3
Mode extension : CM (complete main)
Format settings, Endianness : Big
Codec ID : 2000
Duration : 1h 50mn
Bit rate mode : Constant
Bit rate : 96.0 Kbps
Channel(s) : 2 channels
Channel positions : Front: L R
Sampling rate : 44.1 KHz
Bit depth : 16 bits
Compression mode : Lossy
Stream size : 75.8 MiB (5%)
Alignment : Aligned on interleaves
Interleave, duration : 35 ms (1.04 video frame)
 
http://s20.postimage.org/kqo2oa6t9/vlcsnap_2015_02_18_23h55m46s113.png 
http://s20.postimage.org/n99roysjh/vlcsnap_2015_02_18_23h55m39s43.png 
http://s20.postimage.org/81ts4m0ot/vlcsnap_2015_02_18_23h55m37s18.png 
http://s20.postimage.org/pt5ej2g3h/vlcsnap_2015_02_18_23h55m59s237.png