Zobraziť posledný príspevok | Microsoft Office Professional 2010.14.0.4536.1000 serial keygen | 2016 Calidad Hd
layout

Spy.2015.CAM.x264-MenaceIISociety

Torrent ID# 3B8F9A534EAD7B217D369EC44B783866E1065B3F
NA
Added 2015-06-11 11:19:30   
Size 1.13 GiB in 4 files
Share
Category Video > Movies
Spy.2015.CAM.x264-MenaceIISociety
Description
http://extraimago.com/image/jyo
 
http://www.imdb.com/title/tt3079380/


Susan Cooper is an unassuming, deskbound CIA analyst, and the unsung hero behind the Agency's most dangerous missions. But when her partner falls off the grid and another top agent is compromised, she volunteers to go deep undercover to infiltrate the world of a deadly arms dealer, and prevent a global crisis.

Director: Paul Feig
Writer: Paul Feig
Stars: Melissa McCarthy, Rose Byrne, Jude Law 
Genres: Action | Comedy | Crime
Country: USA
Language: English | French | Italian | German


Spy.2015.CAM.x264-MenaceIISociety
 
http://www.imdb.com/title/tt3079380/
Sources: 6p10H.2O15.D.CAMRip.PROPER.2100MB / Audio is from MRG [THANKS]

Note: sorted the perspective better, i didnt want to crop the top as u would lose a lot but its alot straighter now its been fixed, and theres no half heads. its defo watchable

General
Complete name: Spy.2015.CAM.x264-MenaceIISociety.mp4
Format: MPEG-4
Format profile: Base Media
Codec ID: isom
File size: 1.11 GiB
Duration: 1h 55mn
Overall bit rate mode: Variable
Overall bit rate: 1 371 Kbps
Encoded date: UTC 2015-06-10 17:11:17
Tagged date: UTC 2015-06-10 17:11:17

Video
ID: 1
Format: AVC
Format/Info: Advanced Video Codec
Format profile: [email protected]
Format settings, CABAC: Yes
Format settings, ReFrames: 3 frames
Codec ID: avc1
Codec ID/Info: Advanced Video Coding
Duration: 1h 55mn
Bit rate mode: Variable
Bit rate: 1 250 Kbps
Maximum bit rate: 40.0 Mbps
Width: 672 pixels
Height: 256 pixels
Display aspect ratio: 2.625
Frame rate mode: Constant
Frame rate: 29.970 fps
Color space: YUV
Chroma subsampling: 4:2:0
Bit depth: 8 bits
Scan type: Progressive
Bits/(Pixel*Frame): 0.242
Stream size: 1.01 GiB (91%)
Writing library: x264 core 146 r2538 121396c
Encoding settings: cabac=1 / ref=4 / deblock=1:-1:-1 / analyse=0x3:0x113 / me=umh / subme=9 / psy=1 / psy_rd=1.00:0.15 / mixed_ref=1 / me_range=18 / chroma_me=1 / trellis=2 / 8x8dct=1 / cqm=0 / deadzone=21,11 / fast_pskip=0 / chroma_qp_offset=-3 / threads=12 / lookahead_threads=1 / sliced_threads=0 / slices=4 / nr=1 / decimate=1 / interlaced=0 / bluray_compat=0 / constrained_intra=0 / bframes=3 / b_pyramid=1 / b_adapt=2 / b_bias=0 / direct=1 / weightb=1 / open_gop=0 / weightp=0 / keyint=29 / keyint_min=2 / scenecut=40 / intra_refresh=0 / rc_lookahead=29 / rc=2pass / mbtree=1 / bitrate=1250 / ratetol=1.0 / qcomp=0.60 / qpmin=10 / qpmax=51 / qpstep=4 / cplxblur=20.0 / qblur=0.5 / vbv_maxrate=40000 / vbv_bufsize=30000 / nal_hrd=vbr / filler=0 / ip_ratio=1.40 / aq=1:1.00
Encoded date: UTC 2015-06-10 17:11:17
Tagged date: UTC 2015-06-10 17:12:48
Color primaries: BT.709
Transfer characteristics: BT.709
Matrix coefficients: BT.709

Audio
ID: 2
Format: AAC
Format/Info: Advanced Audio Codec
Format profile: LC
Codec ID: 40
Duration: 1h 55mn
Bit rate mode: Variable
Bit rate: 118 Kbps
Maximum bit rate: 152 Kbps
Channel count: 2 channels
Channel positions: Front: L R
Sampling rate: 44.1 KHz
Compression mode: Lossy
Stream size: 97.1 MiB (9%)
Encoded date: UTC 2015-06-10 17:06:37

 
http://extraimago.com/image/jyt 
http://extraimago.com/image/jyx 
http://extraimago.com/image/jy6 
http://extraimago.com/image/jyV 
http://extraimago.com/image/jyu 
http://extraimago.com/image/jyv 
http://extraimago.com/image/jyA 
http://extraimago.com/image/jyW 
http://extraimago.com/image/jyf 
http://extraimago.com/image/jL8