Resident Evil 6: El capitulo final (2016) Online | Dokumentalny | W garniturach - Suits [S06E05-E06] [480p] [BRRip] [AC3] [XviD-Ralf] [Lektor PL]
layout

Avengers.Age.of.Ultron.2015.HDRip.x264-MenaceIISociety

Torrent ID# 62AAAE9D0E14808ABD48F4F4AF728511AD67C54A
NA
Added 2015-08-20 19:59:20   
Size 1.19 GiB in 4 files
Share
Category Video > Movies
Avengers.Age.of.Ultron.2015.HDRip.x264-MenaceIISociety
Description
------------------------------------------------------------------------

  http://www.torrenting.com

Sign up is OPEN - for time being. Come and have fun

.......................................................................................................................[center][img]http://i.imgur.com/ipey7ZV.jpg[/img]

Avengers.Age.of.Ultron.2015.HDRip.x264-MenaceIISociety 
http://www.imdb.com/title/tt2395427/

Source: 720p-EVO [THANKS] just adjusted some stuff [url]http://screenshotcomparison.com/comparison/139246/picture:1[/url]

General
Complete name                            : Avengers.Age.of.Ultron.2015.HDRip.x264-MenaceIISociety.mp4
Format                                   : MPEG-4
Format profile                           : Base Media
Codec ID                                 : isom
File size                                : 1.17 GiB
Duration                                 : 2h 21mn
Overall bit rate mode                    : Variable
Overall bit rate                         : 1 186 Kbps
Encoded date                             : UTC 2015-08-20 16:42:03
Tagged date                              : UTC 2015-08-20 16:42:03

Video
ID                                       : 1
Format                                   : AVC
Format/Info                              : Advanced Video Codec
Format profile                           : [email protected]
Format settings, CABAC                   : Yes
Format settings, ReFrames                : 3 frames
Codec ID                                 : avc1
Codec ID/Info                            : Advanced Video Coding
Duration                                 : 2h 21mn
Bit rate mode                            : Variable
Bit rate                                 : 846 Kbps
Maximum bit rate                         : 40.0 Mbps
Width                                    : 720 pixels
Height                                   : 304 pixels
Display aspect ratio                     : 2.35:1
Frame rate mode                          : Constant
Frame rate                               : 23.976 fps
Color space                              : YUV
Chroma subsampling                       : 4:2:0
Bit depth                                : 8 bits
Scan type                                : Progressive
Bits/(Pixel*Frame)                       : 0.161
Stream size                              : 857 MiB (71%)
Writing library                          : x264 core 148 r2579 73ae2d1

Audio
ID                                       : 2
Format                                   : AAC
Format/Info                              : Advanced Audio Codec
Format profile                           : LC
Codec ID                                 : 40
Duration                                 : 2h 21mn
Bit rate mode                            : Variable
Bit rate                                 : 336 Kbps
Maximum bit rate                         : 408 Kbps
Channel(s)                               : 6 channels
Channel positions                        : Front: L C R, Side: L R, LFE
Sampling rate                            : 48.0 KHz
Compression mode                         : Lossy
Stream size                              : 340 MiB (28%)
Language                                 : English
Encoded date                             : UTC 2015-08-20 11:06:29
Tagged date                              : UTC 2015-08-20 16:44:38

[img]http://s9.postimg.org/budx291gf/vlcsnap_2015_08_20_18h47m27s266.jpg[/img]
[img]http://s9.postimg.org/l3g3cdacf/vlcsnap_2015_08_20_18h51m01s681.jpg[/img]
[img]http://s9.postimg.org/m36e82pi7/vlcsnap_2015_08_20_18h53m01s339.jpg[/img]
[img]http://s9.postimg.org/mjrluid9b/vlcsnap_2015_08_20_18h53m50s826.jpg[/img]
[img]http://s9.postimg.org/ya5jbw61r/vlcsnap_2015_08_20_18h57m55s528.jpg[/img]
[img]http://s9.postimg.org/51dk5zan3/vlcsnap_2015_08_20_18h59m06s017.jpg[/img]
[img]http://s9.postimg.org/spt21976n/vlcsnap_2015_08_20_18h59m23s320.jpg[/img]
[img]http://s9.postimg.org/ttd6d7rtr/vlcsnap_2015_08_20_19h00m02s289.jpg[/img] 
 
[img]http://s17.postimg.org/r1iiyw8yn/Untitled_1.png[/img][/center]