Télécharger le film tigre et dragon 2 gratuitement | Da Vinci’s Demons | The Monuments Men 2014 (1080p Bluray x265 HEVC 10bit AAC 5 1 Tigole)
layout

True.Detective.S02E08.HDTV.480p.x264.AAC-VYTO [P2PDL]

Torrent ID# 7B5010868C4C96F6CD9A2B3C4A9E75B43ADCC35A
NA
Added 2015-08-10 07:59:05   
Size 301.37 MiB in 6 files
Share
Category Video > HD - TV shows
True.Detective.S02E08.HDTV.480p.x264.AAC-VYTO [P2PDL]
Description
____    ____ ____    ____ .___________.  ______   
     /   /      /   / |           | /  __    
    /   /      /   /  `---|  |----`|  |  |  | 
        /     _    _/       |  |     |  |  |  | 
       /        |  |         |  |     |  `--'  | 
    __/         |__|         |__|      ______/  
                                                  
Presenting Small Encodes with quality for years!
                                                                                                   
                                                                                                   

True.Detective.S02E08.HDTV.480p.x264.AAC-VYTO


General
Format                         : MPEG-4
File size                      : 296 MiB
Duration                       : 1h 26mn
Overall bit rate               : 477 Kbps

Video
Format                         : AVC
Bit rate                       : 426 Kbps
Width                          : 720 pixels
Height                         : 400 pixels
Display aspect ratio           : 16:9
Frame rate mode                : Constant
Frame rate                     : 23.976 fps
Bit depth                      : 8 bits
Stream size                    : 265 MiB (89%)
Writing library                : x264 core 148 r2579

Audio
Format                         : AAC
Bit rate mode                  : Variable
Bit rate                       : 48.0 Kbps
Channel(s)                     : 2 channels
Channel positions              : Front: L R
Sampling rate                  : 48.0 KHz
Stream size                    : 29.8 MiB (10%)

Screenshots:
 
http://ititli.com/ka 
http://ititli.com/kb 
http://ititli.com/kz 
http://ititli.com/kI 
http://ititli.com/kO 
http://ititli.com/o9 
http://ititli.com/oX 
http://ititli.com/oq 
http://ititli.com/or 
http://ititli.com/o1 
http://ititli.com/oT 
http://ititli.com/oW

----------------------------------------------------------------------------------------------------


Encoder Notes: Looking For Early Access To Anything You Can Provide DVDScr, R5, DVDR, BluRay, Direct
Audio, Music Releases and Seedboxes. If You Got anything to offer please contact us.

Support us by donating BC - 1FgwdzPsd1y25Gea8wP1qni35uGCtmkRCD