The Big Bang Theory S09 [TV-PACK] | Naomi Scott, | View this forum's RSS feed
layout

Kingsman.The.Secret.Service.2014.720p.HDRip.x264.anoXmous

Torrent ID# 7BCA2F965F440D56ED24E73766980A41FE2D2792
NA
Added 2015-04-30 19:04:09   
Size 1.11 GiB in 2 files
Share
Category Video > HD - Movies
Kingsman.The.Secret.Service.2014.720p.HDRip.x264.anoXmous
Description
Kingsman.The.Secret.Service.2014.720p.HDRip.x264.anoXmous.mp4

               The Kor_Sub is cropped out !!

Format                                   : MPEG-4
Format profile                           : Base Media
Codec ID                                 : isom
File size                                : 1.11 GiB
Duration                                 : 2h 8mn
Overall bit rate mode                    : Variable
Overall bit rate                         : 1 239 Kbps

Video
ID                                       : 1
Format                                   : AVC
Format/Info                              : Advanced Video Codec
Format profile                           : [email protected]
Format settings, CABAC                   : Yes
Format settings, ReFrames                : 4 frames
Codec ID                                 : avc1
Codec ID/Info                            : Advanced Video Coding
Duration                                 : 2h 8mn
Bit rate                                 : 1 111 Kbps
Maximum bit rate                         : 11.6 Mbps
Width                                    : 1 280 pixels
Height                                   : 568 pixels
Display aspect ratio                     : 2.25:1 (The Kor_Sub is cropped out !!)
Frame rate mode                          : Constant
Frame rate                               : 29.970 fps
Color space                              : YUV
Chroma subsampling                       : 4:2:0
Bit depth                                : 8 bits
Scan type                                : Progressive
Bits/(Pixel*Frame)                       : 0.051
Stream size                              : 1 019 MiB (90%)
Writing library                          : x264 core 146 r2538 121396c
Encoding settings                        : cabac=1 / ref=4 / deblock=1:0:0 / analyse=0x3:0x133 / me=umh 
/ subme=9 / psy=1 / psy_rd=1.00:0.00 / mixed_ref=1 / me_range=16 / chroma_me=1 / trellis=1 / 8x8dct=1 
/ cqm=0 / deadzone=21,11 / fast_pskip=1 / chroma_qp_offset=-2 / threads=12 / lookahead_threads=1 
/ sliced_threads=0 / nr=0 / decimate=1 / interlaced=0 / bluray_compat=0 / constrained_intra=0 
/ bframes=4 / b_pyramid=2 / b_adapt=1 / b_bias=0 / direct=1 / weightb=1 / open_gop=0 / weightp=2 
/ keyint=300 / keyint_min=29 / scenecut=40 / intra_refresh=0 / rc_lookahead=40 / rc=2pass 
/ mbtree=1 / bitrate=1111 / ratetol=1.0 / qcomp=0.60 / qpmin=0 / qpmax=69 / qpstep=4 
/ cplxblur=20.0 / qblur=0.5 / vbv_maxrate=62500 / vbv_bufsize=78125 / nal_hrd=none 
/ filler=0 / ip_ratio=1.40 / aq=1:1.00


Audio
ID                                       : 2
Format                                   : AAC
Format/Info                              : Advanced Audio Codec
Format profile                           : LC
Codec ID                                 : 40
Duration                                 : 2h 8mn
Bit rate mode                            : Variable
Bit rate                                 : 125 Kbps
Maximum bit rate                         : 151 Kbps
Channel(s)                               : 2 channels
Channel positions                        : Front: L R
Sampling rate                            : 44.1 KHz
Compression mode                         : Lossy
Stream size                              : 114 MiB (10%)


-----------------------------------------------------------------------------------------

          Sub in a .srt file it can turns off/on

Kingsman.The.Secret.Service.2014.720p.HDRip.x264.anoXmous_eng.srt

-----------------------------------------------------------------------------------------

A spy organization recruits an unrefined, but promising street kid into the 
agency's ultra-competitive training program, just as a 
global threat emerges from a twisted tech genius.
              
http://www.imdb.com/title/tt2802144/
 
http://en.wikipedia.org/wiki/Kingsman:_The_Secret_Service
    
http://wikimediafoundation.org/wiki/Ways_to_Give/en

-----------------------------------------------------------------------------------------

         This BRRip plays very well with PSP and XBOX
	    
-----------------------------------------------------------------------------------------
  http://thepiratebay.se/user/anoXmous/0/7/0
  http://thepiratebay.se/user/anoXmous/0/9/0
  http://thepiratebay.se/user/Zen_Bud/0/7/0
  http://thepiratebay.se/user/Zen_Bud/0/9/0
  
 ----------------------------------------------------------------------------------------
                                #     #                             
             ##   #    #  ####   #   #  #    #  ####  #    #  ####  
            #  #  ##   # #    #   # #   ##  ## #    # #    # #      
           #    # # #  # #    #    #    # ## # #    # #    #  ####  
           ###### #  # # #    #   # #   #    # #    # #    #      # 
           #    # #   ## #    #  #   #  #    # #    # #    # #    # 
           #    # #    #  ####  #     # #    #  ####   ####   ####