Brooklyn Nine-Nine S04E16 Online sa Prevodom | Dexter, Season: 2, Episode: 10 | Venezuela
layout

Spy.2015.720p.HDRip.KORSUB.XviD.MP3-RARBG

Torrent ID# 7FD4B6AEDA0A08A006424B57496C630324DA272A
NA
Added 2015-07-05 17:07:33   
Size 3.34 GiB in 4 files
Share
Seeders & Leechers 133/556
Category Video > Movies
Spy.2015.720p.HDRip.KORSUB.XviD.MP3-RARBG
Description
Video
ID                                       : 0
Format                                   : MPEG-4 Visual
Format profile                           : [email protected]
Format settings, BVOP                    : No
Format settings, QPel                    : No
Format settings, GMC                     : No warppoints
Format settings, Matrix                  : Default (H.263)
Codec ID                                 : XVID
Codec ID/Hint                            : XviD
Duration                                 : 1h 59mn
Bit rate                                 : 3 798 Kbps
Width                                    : 1 280 pixels
Height                                   : 720 pixels
Display aspect ratio                     : 16:9
Frame rate                               : 30.000 fps
Color space                              : YUV
Chroma subsampling                       : 4:2:0
Bit depth                                : 8 bits
Scan type                                : Progressive
Compression mode                         : Lossy
Bits/(Pixel*Frame)                       : 0.137
Stream size                              : 3.16 GiB (95%)
Writing library                          : Lavc56.13.100

Audio
ID                                       : 1
Format                                   : MPEG Audio
Format version                           : Version 1
Format profile                           : Layer 3
Mode                                     : Joint stereo
Mode extension                           : MS Stereo
Codec ID                                 : 55
Codec ID/Hint                            : MP3
Duration                                 : 1h 59mn
Bit rate mode                            : Constant
Bit rate                                 : 192 Kbps
Channel(s)                               : 2 channels
Sampling rate                            : 48.0 KHz
Compression mode                         : Lossy
Stream size                              : 164 MiB (5%)
Alignment                                : Aligned on interleaves
Interleave, duration                     : 24 ms (0.72 video frame)
Interleave, preload duration             : 504 ms
Writing library                          : LAME3.99.5