Tangled: The Series | JAM Software TreeSize Professional 6 2 1 1062 (x86+x64) + Keygen + 100% Working | Mistress America
layout

Kingsman The Secret Service 2015 NEWSOURCE RUSS CAM XviD AC3 MUR

Torrent ID# A62A6B1DB2BDA2082FA66676EFC0A1DF9FB74E72
NA
Added 2015-02-24 17:56:53   
Size 706.38 MiB in 8 files
Share
Seeders & Leechers 130/79
Category Video > Movies
Kingsman The Secret Service 2015 NEWSOURCE RUSS CAM XviD AC3 MUR
Description
http://imgsleek.com/img-54ecad724bb5a.html
 
http://imgsleek.com/img-54ecad7251a37.html
 
http://imgsleek.com/img-54ecad72573b6.html

........................

Kingsman The Secret Service 2015 NEWSOURCE RUSS CAM XviD AC3 MURD3R.avi
Format : AVI
Format/Info : Audio Video Interleave
File size : 705 MiB
Duration : 2h 2mn
Overall bit rate : 808 Kbps

Video
ID : 0
Format : MPEG-4 Visual
Format profile : Advanced [email protected]
Format settings, BVOP : 3
Format settings, QPel : No
Format settings, GMC : No warppoints
Format settings, Matrix : Custom
Codec ID : XVID
Codec ID/Hint : XviD
Duration : 2h 2mn
Bit rate : 667 Kbps
Width : 640 pixels
Height : 272 pixels
Display aspect ratio : 2.35:1
Frame rate : 29.970 fps
Color space : YUV
Chroma subsampling : 4:2:0
Bit depth : 8 bits
Scan type : Progressive
Compression mode : Lossy
Bits/(Pixel*Frame) : 0.128
Stream size : 583 MiB (83%)
Writing library : XviD

Audio
ID : 1
Format : AC-3
Format/Info : Audio Coding 3
Mode extension : CM (complete main)
Format settings, Endianness : Big
Codec ID : 2000
Duration : 2h 2mn
Bit rate mode : Constant
Bit rate : 128 Kbps
Channel(s) : 2 channels
Channel positions : Front: L R
Sampling rate : 48.0 KHz
Bit depth : 16 bits
Compression mode : Lossy
Stream size : 112 MiB (16%)
Alignment : Aligned on interleaves
Interleave, duration : 32 ms (0.96 video frame)