sendmyway.com | Trideviyaan | Hum Ne Li Hai Shapath
layout

Terminator.Genisys.2015.NEW.TS.XVID.AC3.HQ.Hive-CM8

Torrent ID# A8739CA0EEDF271301C11D1E78FD5392BF0052CD
NA
Added 2015-08-04 13:29:37   
Size 1.64 GiB in 5 files
Share
Category Video > Movies
Terminator.Genisys.2015.NEW.TS.XVID.AC3.HQ.Hive-CM8
Description
------------------------------------------------------------------------

  http://www.torrenting.com

Sign up is OPEN - for time being. Come and have fun

.......................................................................................................................[center][img]http://img538.imageshack.us/img538/6039/0moEnG.jpg[/img]

 
[color=blue][size=4][b]Terminator.Genisys.2015.NEW.TS.XVID.AC3.HQ.Hive-CM8[/b][/size][/color]

Thx Hive

CM8 Doing It Right The First Time
General
Complete name : Terminator.Genisys.2015.NEW.TS.XVID.AC3.HQ.Hive-CM8.avi
Format : AVI
Format/Info : Audio Video Interleave
File size : 1.62 GiB
Duration : 1h 57mn
Overall bit rate : 1 967 Kbps
Writing application : Nandub v1.0rc2
Writing library : Nandub build 1853/release

Video
ID : 0
Format : MPEG-4 Visual
Format profile : Advanced [email protected]
Format settings, BVOP : 2
Format settings, QPel : Yes
Format settings, GMC : No warppoints
Format settings, Matrix : Default (H.263)
Muxing mode : Packed bitstream
Codec ID : XVID
Codec ID/Hint : XviD
Duration : 1h 57mn
Bit rate : 1 700 Kbps
Width : 720 pixels
Height : 384 pixels
Display aspect ratio : 1.85:1
Frame rate : 30.000 fps
Color space : YUV
Chroma subsampling : 4:2:0
Bit depth : 8 bits
Scan type : Progressive
Compression mode : Lossy
Bits/(Pixel*Frame) : 0.205
Stream size : 1.40 GiB (86%)
Writing library : XviD 1.2.1 (UTC 2008-12-04)

Audio
ID : 1
Format : AC-3
Format/Info : Audio Coding 3
Mode extension : CM (complete main)
Format settings, Endianness : Big
Codec ID : 2000
Duration : 1h 57mn
Bit rate mode : Constant
Bit rate : 256 Kbps
Channel(s) : 2 channels
Channel positions : Front: L R
Sampling rate : 48.0 KHz
Bit depth : 16 bits
Compression mode : Lossy
Delay relative to video : 14ms
Stream size : 216 MiB (13%)
Alignment : Split accross interleaves
Interleave, duration : 33 ms (1.00 video frame)
Interleave, preload duration : 500 ms
Sources:

Video: New 1080p HDCAM INCOMING thx
Audio: Sweet Line Big Thx to S4NDM4N



Plot

When John Connor (Jason Clarke), leader of the human resistance against Skynet, sends Kyle Reese (Jai Courtney) back to 1984 to protect his mother, 
Sarah (Emilia Clarke), from a Terminator assassin, an unexpected turn of events creates an altered timeline. 
Instead of a scared waitress, Sarah is a skilled fighter and has a Terminator guardian (Arnold Schwarzenegger) by her side. 
Faced with unlikely allies and dangerous new enemies, Reese sets out on an unexpected new mission: reset the future.

Cast
Arnold Schwarzenegger 	... 	Guardian 
Jason Clarke 	... 	John Connor 
Emilia Clarke 	... 	Sarah Connor 
Jai Courtney 	... 	Kyle Reese 
J.K. Simmons 	... 	O'Brien
Dayo Okeniyi 	... 	Danny Dyson 

Greetz

SugarB,iNCOMiNG,MenaceIISociety,jiinx,SiMPLE,CherryBomb
ViSiON,YanKeeS,COPYxRIGHT,THC,VAiN,ACAB,DRs
LKRG,Kingstoner,ACAB,SiMPLE,TiTAN
Unevano,BigVik,Rapeseed,SAFC,goldadvance,KaN1vE,Pinnz,Wayne,HiGH
SeeN,jtr,Limey,ICONiK,TED,rkofan,mrtoke09 (ya whinging old man here ya go lol )
Mr Hive

LOOKING FOR ANYTHING YOU WANT TO LOOK AND SOUND BETTER

COME FIND US WE DONT BITE 
[email protected][/center]