A Cure For Wellness (2017) reloj libre de la película completa .avi | 2016 Estrenos MicroHDMicroHD | Annabelle 2
layout

Ariana Grande - Focus (2015.Pop)

Torrent ID# ADC51B2ED939D0D1A67A12F34B9B7B97D26F669F
NA
Added 2016-02-06 18:16:49   
Size 71.5 MiB in 1 files
Share
Seeders & Leechers 7/0
Category Video > Music videos
Ariana Grande - Focus (2015.Pop)
Description
ARIANA GRANDE - FOCUS

 
http://gifyu.com/images/focus.png
 
http://gifyu.com/images/Focus-AG.png

General
Ariana Grande - Focus
Format                                   : MPEG-4
Format profile                           : Base Media
Codec ID                                 : isom
File size                                : 71.5 MiB
Duration                                 : 3mn 45s
Overall bit rate                         : 2 665 Kbps
MusicVid name                            : Focus
Performer                                : Ariana Grande
Genre                                    : Pop
ContentType                              : Music Video
Recorded date                            : 2015
Writing application                      : Lavf56.32.100 / MeRaDil
Cover                                    : Yes
aurl                                     : http://www.arianagrande.com/
relt                                     : USA . october 29 . 2015

Video
ID                                       : 1
Format                                   : AVC
Format/Info                              : Advanced Video Codec
Format profile                           : [email protected]
Format settings, CABAC                   : Yes
Format settings, ReFrames                : 3 frames
Codec ID                                 : avc1
Codec ID/Info                            : Advanced Video Coding
Duration                                 : 3mn 44s
Bit rate                                 : 2 388 Kbps
Width                                    : 1 920 pixels
Height                                   : 1 080 pixels
Display aspect ratio                     : 16:9
Frame rate mode                          : Variable
Frame rate                               : 23.976 fps
Minimum frame rate                       : 23.974 fps
Maximum frame rate                       : 23.981 fps
Color space                              : YUV
Chroma subsampling                       : 4:2:0
Bit depth                                : 8 bits
Scan type                                : Progressive
Bits/(Pixel*Frame)                       : 0.048
Stream size                              : 64.0 MiB (90%)

Audio
ID                                       : 2
Format                                   : AAC
Format/Info                              : Advanced Audio Codec
Format profile                           : LC
Codec ID                                 : 40
Duration                                 : 3mn 45s
Bit rate mode                            : Constant
Bit rate                                 : 256 Kbps
Channel(s)                               : 2 channels
Channel positions                        : Front: L R
Sampling rate                            : 44.1 KHz
Compression mode                         : Lossy
Stream size                              : 6.87 MiB (10%)