Watch The Four Musketeers: Milady’s Revenge Online Free 1974 Putlocker | Man of La Mancha_HD ts | The Artist
layout

Magic.Mike.XXL.2015.WEBRip.480p.x264.AAC-VYTO [P2PDL]

Torrent ID# D136BFDC07825653C8AFF96F0376CD89E1B870B3
NA
Added 2015-08-28 07:03:14   
Size 459.63 MiB in 7 files
Share
Category Video > Movies
Magic.Mike.XXL.2015.WEBRip.480p.x264.AAC-VYTO [P2PDL]
Description
____    ____ ____    ____ .___________.  ______   
     /   /      /   / |           | /  __    
    /   /      /   /  `---|  |----`|  |  |  | 
        /     _    _/       |  |     |  |  |  | 
       /        |  |         |  |     |  `--'  | 
    __/         |__|         |__|      ______/  
                                                  
Presenting Small Encodes with quality for years!
                                                                                                   
                                                                                                   

Magic.Mike.XXL.2015.WEBRip.480p.x264.AAC-VYTO


Genre: Comedy, Drama, Music 
http://www.imdb.com/title/tt2268016/


General
Format                         : MPEG-4
File size                      : 452 MiB
Duration                       : 1h 55mn
Overall bit rate               : 548 Kbps

Video
Format                         : AVC
Bit rate                       : 513 Kbps
Width                          : 720 pixels
Height                         : 304 pixels
Display aspect ratio           : 2.35:1
Frame rate                     : 23.976 fps
Bit depth                      : 8 bits
Stream size                    : 423 MiB (94%)
Writing library                : x264 core 148 r2597

Audio
Format                         : AAC
Bit rate mode                  : Variable
Bit rate                       : 32.0 Kbps
Channel(s)                     : 2 channels 
Channel positions              : Front: L R
Sampling rate                  : 48.0 KHz 
Stream size                    : 26.4 MiB (6%)
Language                       : English

Subtitle                       : Yes (English)
Source                     	   : 720p.WEB-DL

Screenshots:
 
http://ititli.com/sF 
http://ititli.com/sJ 
http://ititli.com/s5 
http://ititli.com/sB 
http://ititli.com/sN 
http://ititli.com/sP 
http://ititli.com/sf 
http://ititli.com/su 
http://ititli.com/sv 
http://ititli.com/sR 
http://ititli.com/sy 
http://ititli.com/s3

----------------------------------------------------------------------------------------------------


Encoder Notes: Looking For Early Access To Anything You Can Provide DVDScr, R5, DVDR, BluRay, Direct
Audio, Music Releases and Seedboxes. If You Got anything to offer please contact us.

Support us by donating BC - 1FgwdzPsd1y25Gea8wP1qni35uGCtmkRCD