Gangster Squad | premier classroom in a book | The Return Of Raju 2017 Hindi Dubbed Movie 300mb Download HDRip
layout

Spooks.The.Greater.Good.2015.720p.WEB-DL.DD5.1.H264-RARBG

Torrent ID# E535C9C02082E6DC61FE7379BCACEF877F853597
NA
Added 2015-09-15 14:17:01   
Size 3.15 GiB in 4 files
Share
Category Video > HD - Movies
Spooks.The.Greater.Good.2015.720p.WEB-DL.DD5.1.H264-RARBG
Description
Video
ID                                       : 1
Format                                   : AVC
Format/Info                              : Advanced Video Codec
Format profile                           : [email protected]
Format settings, CABAC                   : No
Format settings, ReFrames                : 2 frames
Codec ID                                 : V_MPEG4/ISO/AVC
Duration                                 : 1h 44mn
Bit rate                                 : 3 860 Kbps
Width                                    : 1 280 pixels
Height                                   : 532 pixels
Display aspect ratio                     : 2.40:1
Frame rate mode                          : Constant
Frame rate                               : 24.000 fps
Color space                              : YUV
Chroma subsampling                       : 4:2:0
Bit depth                                : 8 bits
Scan type                                : Progressive
Bits/(Pixel*Frame)                       : 0.236
Stream size                              : 2.81 GiB (89%)
Title                                    : Spooks.The.Greater.Good.2015.720p.WEB-DL.DD5.1.H264-RARBG
Language                                 : English
Default                                  : Yes
Forced                                   : No
Color range                              : Limited
Color primaries                          : BT.709
Transfer characteristics                 : BT.709
Matrix coefficients                      : BT.709

Audio
ID                                       : 2
Format                                   : AC-3
Format/Info                              : Audio Coding 3
Mode extension                           : CM (complete main)
Format settings, Endianness              : Big
Codec ID                                 : A_AC3
Duration                                 : 1h 44mn
Bit rate mode                            : Constant
Bit rate                                 : 384 Kbps
Channel(s)                               : 6 channels
Channel positions                        : Front: L C R, Side: L R, LFE
Sampling rate                            : 48.0 KHz
Compression mode                         : Lossy
Stream size                              : 286 MiB (9%)
Title                                    : Spooks.The.Greater.Good.2015.720p.WEB-DL.DD5.1.H264-RARBG
Language                                 : English
Default                                  : Yes
Forced                                   : No