Logan en entier vf | BrainDead | Poorna (2017) Movie 720p HDRip Free Download
layout

Magic.Mike.XXL.2015.720p.BRRip.XviD.AC3-LEGiON

Torrent ID# E74E1A1C8F1D7093505CEA526A4712DA101F2DC4
NA
Added 2015-08-27 16:33:47   
Size 677.94 MiB in 5 files
Share
Category Other > Other
Magic.Mike.XXL.2015.720p.BRRip.XviD.AC3-LEGiON
Description
Video
ID : 0
Format : MPEG-4 Visual
Format profile : Advanced [email protected]
Format settings, BVOP : 2
Format settings, QPel : No
Format settings, GMC : No warppoints
Format settings, Matrix : Default (H.263)
Codec ID : XVID
Codec ID/Hint : XviD
Bit rate : 523 Kbps
Width : 640 pixels
Height : 272 pixels
Display aspect ratio : 2.35:1
Frame rate : 23.976 fps
Color space : YUV
Chroma subsampling : 4:2:0
Bit depth : 8 bits
Scan type : Progressive
Compression mode : Lossy
Bits/(Pixel*Frame) : 0.125
Stream size : 596 MiB (86%)
Writing library : XviD 1.2.1 (UTC 2008-12-04)

Audio
ID : 1
Format : MPEG Audio
Format version : Version 1
Format profile : Layer 3
Codec ID : 55
Codec ID/Hint : MP3
Bit rate mode : Constant
Bit rate : 80.0 Kbps
Channel(s) : 2 channels
Sampling rate : 48.0 KHz
Compression mode : Lossy
Stream size : 91.2 MiB (13%)
Alignment : Aligned on interleaves
Interleave, duration : 167 ms (4.00 video frames)
Interleave, preload duration : 216 ms
Title : 1
Writing library : LAME3.98r
Encoding settings : -m s -V 4 -q 3 -lowpass 13.5 -b 80